<?xml version="1.0" standalone="no"?>
<!DOCTYPE svg PUBLIC "-//W3C//DTD SVG 1.1//EN" "http://www.w3.org/Graphics/SVG/1.1/DTD/svg11.dtd" >
<!--
2013-9-15: Created.
-->
<svg xmlns="http://www.w3.org/2000/svg">
<metadata>
Created by FontForge 20120731 at Sun Sep 15 15:49:34 2013
 By Tyler Wanlass
Created by Tyler Wanlass with FontForge 2.0 (http://fontforge.sf.net)
</metadata>
<defs>
<font id="picto-foundry-arrows" horiz-adv-x="512" >
  <font-face 
    font-family="picto-foundry-arrows"
    font-weight="500"
    font-stretch="normal"
    units-per-em="512"
    panose-1="2 0 6 3 0 0 0 0 0 0"
    ascent="448"
    descent="-64"
    bbox="-0.75 -64.375 512.75 448.75"
    underline-thickness="25.6"
    underline-position="-51.2"
    unicode-range="U+F100-F13B"
  />
    <missing-glyph />
    <glyph glyph-name="uniF100" unicode="&#xf100;" 
d="M509 423c4 -3 3 -8 0 -12l-233 -240h-12l-218 217l-28 -111c-1 -5 -6 -8 -11 -7s-8 6 -7 11l33 127v0c1 3 3 6 6 7l128 33c5 1 10 -2 11 -7s-2 -10 -7 -11l-112 -29l211 -211l227 233c3 4 8 3 12 0z" />
    <glyph glyph-name="uniF101" unicode="&#xf101;" 
d="M512 281c1 -5 -2 -10 -7 -11s-10 2 -11 7l-28 112l-218 -218h-12l-233 240c-3 4 -4 9 0 12s9 4 12 0l227 -233l211 211l-112 29c-5 1 -8 6 -7 11s6 8 11 7l128 -33c3 -1 5 -4 6 -7v0z" />
    <glyph glyph-name="uniF102" unicode="&#xf102;" 
d="M509 209c3 -4 4 -10 0 -13c-2 -2 -4 -3 -6 -3s-4 1 -6 3l-227 233l-211 -211l112 -29c5 -1 8 -6 7 -11c-1 -4 -5 -7 -9 -7c-1 0 -1 1 -2 1l-128 33c-3 1 -5 3 -6 6v0l-33 127c-1 5 2 10 7 11s10 -2 11 -7l28 -111l218 217h12z" />
    <glyph glyph-name="uniF103" unicode="&#xf103;" 
d="M505 349c5 -1 8 -6 7 -11l-33 -127v0c-1 -3 -3 -5 -6 -6l-128 -33c-1 0 -1 -1 -2 -1c-4 0 -8 3 -9 7c-1 5 2 10 7 11l112 29l-211 211l-227 -233c-2 -2 -4 -3 -6 -3s-4 1 -6 3c-4 3 -3 9 0 13l233 239h12l218 -217l28 111c1 5 6 8 11 7z" />
    <glyph glyph-name="uniF104" unicode="&#xf104;" 
d="M508 445c5 -5 5 -12 0 -17l-434 -434l136 -35c6 -2 10 -8 8 -14c-1 -5 -6 -9 -11 -9h-3l-155 41c-4 1 -8 4 -9 8v0l-40 155c-2 6 3 12 9 14s12 -2 14 -8l35 -136l434 435c5 5 11 5 16 0z" />
    <glyph glyph-name="uniF105" unicode="&#xf105;" 
d="M503 154c6 -2 10 -8 8 -14l-40 -155v0c-1 -4 -4 -7 -8 -8l-156 -41h-2c-5 0 -11 4 -12 9c-2 6 3 12 9 14l136 35l-435 434c-5 5 -5 12 0 17s12 5 17 0l434 -435l35 136c2 6 8 10 14 8z" />
    <glyph glyph-name="uniF106" unicode="&#xf106;" horiz-adv-x="233" 
d="M232 13c3 -4 1 -9 -3 -12l-108 -64v0c-1 -1 -2 -1 -4 -1s-4 0 -5 1l-108 64c-4 3 -6 8 -3 12s9 6 13 3l94 -55v478c0 5 4 9 9 9s9 -4 9 -9v-478l94 55c4 3 9 1 12 -3z" />
    <glyph glyph-name="uniF107" unicode="&#xf107;" 
d="M503 341c5 0 9 -4 9 -9s-4 -9 -9 -9h-478l55 -95c3 -4 1 -9 -3 -12c-1 -1 -3 -1 -5 -1c-3 0 -5 1 -7 4l-64 108c-2 3 -2 6 0 9v0l64 108c3 4 8 6 12 3s6 -9 3 -13l-55 -93h478z" />
    <glyph glyph-name="uniF108" unicode="&#xf108;" 
d="M511 336c2 -3 2 -6 0 -9l-64 -108c-2 -3 -4 -4 -7 -4c-2 0 -4 0 -5 1c-4 3 -6 8 -3 12l55 95h-478c-5 0 -9 4 -9 9s4 9 9 9h478l-55 93c-3 4 -1 10 3 13s9 1 12 -3l64 -108v0z" />
    <glyph glyph-name="uniF109" unicode="&#xf109;" 
d="M509 -44c5 -5 5 -11 0 -16c-2 -2 -6 -4 -9 -4s-6 2 -8 4l-434 434l-35 -136c-1 -5 -6 -9 -11 -9c-1 0 -2 1 -3 1c-6 2 -11 8 -9 14l41 155c1 4 4 8 8 9v0l155 40c6 2 12 -3 14 -9s-2 -12 -8 -14l-136 -35z" />
    <glyph glyph-name="uniF10A" unicode="&#xf10a;" 
d="M511 244c2 -6 -2 -12 -8 -14s-12 2 -14 8l-35 136l-434 -435c-2 -2 -5 -3 -8 -3s-7 1 -9 3c-5 5 -5 12 0 17l435 434l-136 35c-6 2 -11 8 -9 14s8 11 14 9l156 -41c4 -1 7 -4 8 -8v0z" />
    <glyph glyph-name="uniF10B" unicode="&#xf10b;" horiz-adv-x="233" 
d="M229 383c4 -3 6 -8 3 -12c-2 -3 -5 -4 -8 -4c-2 0 -3 0 -4 1l-95 55v-478c0 -5 -4 -9 -9 -9s-9 4 -9 9v478l-93 -55c-4 -3 -10 -1 -13 3s-1 9 3 12l108 64v0c3 2 6 2 9 0z" />
    <glyph glyph-name="uniF10C" unicode="&#xf10c;" 
d="M510 437c5 -9 1 -19 -8 -24l-237 -120c-3 -1 -5 -2 -8 -2s-5 1 -8 2l-239 121c-9 4 -12 15 -8 24s15 12 24 8l231 -117l229 116c9 5 19 1 24 -8z" />
    <glyph glyph-name="uniF10D" unicode="&#xf10d;" 
d="M511 442c2 -5 1 -10 -4 -12l-246 -125c-1 -1 -3 -1 -4 -1s-3 0 -4 1l-248 125c-5 2 -6 8 -4 13s8 6 13 4l243 -123l241 122c5 2 11 1 13 -4z" />
    <glyph glyph-name="uniF10E" unicode="&#xf10e;" horiz-adv-x="157" 
d="M38 191l116 -229c5 -9 2 -19 -7 -24c-3 -1 -6 -2 -9 -2c-7 0 -13 4 -16 10l-120 237c-3 5 -3 11 0 16l121 239c4 9 15 12 24 8s12 -15 8 -24z" />
    <glyph glyph-name="uniF10F" unicode="&#xf10f;" horiz-adv-x="144" 
d="M143 -50c2 -5 1 -11 -4 -13c-1 -1 -3 -1 -4 -1c-3 0 -6 2 -8 5l-126 248c-1 3 -1 5 0 8l125 246c2 5 7 6 12 4s6 -8 4 -13l-122 -241z" />
    <glyph glyph-name="uniF110" unicode="&#xf110;" horiz-adv-x="157" 
d="M155 199c3 -5 3 -11 0 -16l-120 -237c-3 -6 -9 -10 -16 -10c-3 0 -5 1 -8 2c-9 5 -13 15 -8 24l116 229l-117 231c-4 9 -1 19 8 24c9 4 20 1 24 -8z" />
    <glyph glyph-name="uniF111" unicode="&#xf111;" horiz-adv-x="144" 
d="M143 195c1 -3 1 -5 0 -8l-125 -246c-2 -3 -5 -5 -8 -5c-1 0 -3 0 -4 1c-5 2 -6 8 -4 13l122 241l-123 243c-2 5 -1 11 4 13s11 1 13 -4z" />
    <glyph glyph-name="uniF112" unicode="&#xf112;" 
d="M18 291c-7 0 -13 4 -16 10c-4 9 -1 20 8 24l239 121c5 3 11 3 16 0l237 -120c9 -5 13 -16 8 -25c-4 -9 -15 -12 -24 -7l-229 116l-231 -117c-3 -1 -5 -2 -8 -2z" />
    <glyph glyph-name="uniF113" unicode="&#xf113;" 
d="M507 322c5 -2 6 -7 4 -12s-8 -6 -13 -4l-241 122l-243 -123c-1 -1 -4 -1 -5 -1c-3 0 -6 2 -8 5c-2 5 -1 10 4 12l248 126c3 1 5 1 8 0z" />
    <glyph glyph-name="uniF114" unicode="&#xf114;" 
d="M256 448c141 0 256 -115 256 -256s-115 -256 -256 -256s-256 115 -256 256s115 256 256 256zM256 -45c131 0 237 106 237 237s-106 237 -237 237s-237 -106 -237 -237s106 -237 237 -237zM362 218c4 3 10 2 13 -2s1 -10 -3 -13l-112 -74c-2 -1 -3 -1 -5 -1s-3 0 -5 1
l-111 73c-4 3 -6 9 -3 13s9 6 13 3l106 -70z" />
    <glyph glyph-name="uniF115" unicode="&#xf115;" 
d="M256 448c141 0 256 -115 256 -256s-115 -256 -256 -256s-256 115 -256 256s115 256 256 256zM256 -45c131 0 237 106 237 237s-106 237 -237 237s-237 -106 -237 -237s106 -237 237 -237zM280 311c4 -3 5 -9 2 -13l-70 -107l70 -106c3 -4 1 -10 -3 -13c-2 -1 -3 -1 -5 -1
c-3 0 -6 1 -8 4l-73 111c-2 3 -2 7 0 10l74 112c3 4 9 6 13 3z" />
    <glyph glyph-name="uniF116" unicode="&#xf116;" 
d="M256 448c141 0 256 -115 256 -256s-115 -256 -256 -256s-256 115 -256 256s115 256 256 256zM256 -45c131 0 237 106 237 237s-106 237 -237 237s-237 -106 -237 -237s106 -237 237 -237zM255 308l73 -112c2 -3 2 -7 0 -10l-73 -111c-2 -3 -5 -4 -8 -4c-2 0 -3 0 -5 1
c-4 3 -6 9 -3 13l70 106l-70 107c-3 4 -1 10 3 13s10 1 13 -3z" />
    <glyph glyph-name="uniF117" unicode="&#xf117;" 
d="M256 448c141 0 256 -115 256 -256s-115 -256 -256 -256s-256 115 -256 256s115 256 256 256zM256 -45c131 0 237 106 237 237s-106 237 -237 237s-237 -106 -237 -237s106 -237 237 -237zM372 181c4 -3 6 -9 3 -13c-2 -3 -5 -4 -8 -4c-2 0 -3 1 -5 2l-107 70l-106 -70
c-4 -3 -10 -1 -13 3s-1 10 3 13l111 73c3 2 7 2 10 0z" />
    <glyph glyph-name="uniF118" unicode="&#xf118;" horiz-adv-x="511" 
d="M340 284l-31 120c-1 5 2 10 7 11s10 -2 11 -7l27 -105l142 142c3 3 9 3 12 0s3 -9 0 -12l-142 -142l106 -28c5 -1 7 -6 6 -11c-1 -4 -5 -6 -9 -6h-2l-120 31c-3 1 -6 3 -7 6v1zM196 415c5 -1 7 -6 6 -11l-31 -120v-1c-1 -3 -3 -5 -6 -6l-121 -31h-2c-4 0 -7 2 -8 6
c-1 5 1 10 6 11l105 28l-142 142c-3 3 -3 9 0 12s10 3 13 0l142 -142l27 105c1 5 6 8 11 7zM366 93l142 -142c3 -3 3 -9 0 -12c-2 -2 -4 -3 -6 -3s-5 1 -7 3l-142 142l-27 -105c-1 -5 -6 -8 -11 -7s-7 6 -6 11l31 120v1c1 3 3 5 6 6l121 31c5 1 10 -1 11 -6s-2 -10 -7 -11z
M171 100l31 -120c1 -5 -2 -10 -7 -11s-10 2 -11 7l-27 105l-142 -142c-2 -2 -4 -3 -6 -3s-4 1 -6 3c-3 3 -3 9 0 12l142 142l-106 28c-5 1 -7 6 -6 11s6 7 11 6l120 -31c3 -1 6 -3 7 -6v-1z" />
    <glyph glyph-name="uniF119" unicode="&#xf119;" 
d="M39 -23c0 1 -1 1 -1 2l-1 2l-37 143c-1 4 0 7 3 10c1 1 3 3 5 3c6 1 12 -2 13 -8l32 -125l391 391l-125 32c-6 1 -9 7 -8 13c0 2 2 4 3 5c3 3 6 4 10 3l143 -37c4 -1 7 -4 8 -8v0l37 -143c1 -6 -2 -12 -8 -13s-12 2 -13 8l-32 125l-391 -391l125 -32c6 -1 9 -7 8 -13
s-7 -9 -13 -8l-143 37l-1 1c-1 0 -1 1 -2 1s-2 1 -2 1s-1 0 -1 1z" />
    <glyph glyph-name="uniF11A" unicode="&#xf11a;" 
d="M471 -25c-1 0 -1 -1 -2 -1l-2 -1l-143 -37c-4 -1 -7 0 -10 3c-1 1 -3 3 -3 5c-1 6 2 12 8 13l125 32l-391 391l-32 -125c-1 -6 -7 -9 -13 -8c-2 0 -4 2 -5 3c-3 3 -4 6 -3 10l37 143c1 4 4 7 8 8v0l143 37c6 1 12 -2 13 -8s-2 -12 -8 -13l-125 -32l391 -391l32 125
c1 6 7 9 13 8s9 -7 8 -13l-37 -143l-1 -1c0 -1 -1 -1 -1 -2s-1 -2 -1 -2s0 -1 -1 -1z" />
    <glyph glyph-name="uniF11B" unicode="&#xf11b;" 
d="M505 109c5 -1 8 -6 7 -11l-32 -123v0c-1 -3 -3 -5 -6 -6l-123 -32h-2c-4 0 -8 3 -9 7c-1 5 1 10 6 11l108 28l-198 198l-198 -198l108 -28c5 -1 7 -6 6 -11c-1 -4 -5 -7 -9 -7h-2l-123 32c-3 1 -5 3 -6 6v0l-32 123c-1 5 2 10 7 11s10 -2 11 -7l27 -106l198 198l-197 198
l-28 -110c-1 -4 -5 -7 -9 -7c-1 0 -1 1 -2 1c-5 1 -8 6 -7 11l32 123l1 1v1s2 2 2 2l1 1c1 0 1 1 2 1h1l122 32c5 1 10 -2 11 -7s-1 -10 -6 -11l-105 -27l195 -196l195 196l-105 27c-5 1 -7 6 -6 11s6 8 11 7l122 -32h1c1 0 1 -1 2 -1l1 -1s2 -1 2 -2v-1l1 -1l32 -123
c1 -5 -2 -10 -7 -11c-1 0 -1 -1 -2 -1c-4 0 -8 3 -9 7l-28 110l-197 -198l198 -198l27 106c1 5 6 8 11 7z" />
    <glyph glyph-name="uniF11C" unicode="&#xf11c;" 
d="M0 297c0 61 112 108 256 108v0v-18v0c-142 0 -238 -46 -238 -90c0 -29 41 -59 110 -76l-30 72l17 7l36 -88c1 -3 1 -6 -1 -9l-54 -73l-14 11l46 62c-77 18 -128 53 -128 94zM379 392c80 -18 133 -53 133 -95c0 -60 -112 -109 -255 -109v18c142 0 237 48 237 91
c0 30 -46 61 -121 78l19 -63l-18 -5l-21 74c-1 3 -1 6 1 8l48 59l14 -11z" />
    <glyph glyph-name="uniF11D" unicode="&#xf11d;" 
d="M511 129v0c2 -3 2 -6 0 -9l-64 -108c-2 -3 -4 -4 -7 -4c-2 0 -4 0 -5 1c-4 3 -6 8 -3 12l55 95h-478c-5 0 -9 4 -9 9s4 9 9 9h478l-55 94c-3 4 -1 9 3 12s9 1 12 -3zM1 327c-2 3 -2 6 0 9v0l64 108c3 4 8 6 12 3s6 -9 3 -13l-55 -93h478c5 0 9 -4 9 -9s-4 -9 -9 -9h-478
l55 -95c3 -4 1 -9 -3 -12c-1 -1 -3 -1 -5 -1c-3 0 -5 1 -7 4z" />
    <glyph glyph-name="uniF11E" unicode="&#xf11e;" 
d="M380 391c73 0 132 -59 132 -132s-59 -133 -132 -133c-24 0 -48 7 -68 19l-2 -57c0 -5 -3 -8 -8 -8h-1c-5 0 -8 4 -8 9l2 73v1c0 1 1 1 1 2s1 1 1 1l1 1c1 1 0 2 1 2h1l1 1v0l64 32c4 2 10 0 12 -4s0 -10 -4 -12l-51 -26c17 -10 37 -16 58 -16c63 0 114 52 114 115
s-51 115 -114 115s-115 -52 -115 -115v-1v0c-1 -72 -60 -131 -133 -131s-132 60 -132 133s59 132 132 132c16 0 32 -3 47 -8l-10 53c-1 5 2 10 7 11s9 -2 10 -7l14 -72v-1v-2v-2s-1 0 -1 -1s-1 -2 -1 -2h-1l-56 -47c-2 -1 -4 -2 -6 -2c-3 0 -4 1 -6 3c-3 4 -3 10 1 13l45 38
c-13 5 -28 8 -43 8c-63 0 -114 -51 -114 -114s51 -115 114 -115s115 52 115 115v0v0c0 73 60 131 133 131z" />
    <glyph glyph-name="uniF11F" unicode="&#xf11f;" horiz-adv-x="473" 
d="M453 163v0h20c-5 -126 -110 -227 -237 -227c-130 0 -236 106 -236 236s106 237 236 237v26v2c-1 2 0 4 1 6c2 4 8 7 12 4l106 -45c3 -2 4 -5 4 -8s-1 -6 -4 -8l-106 -45c-1 -1 -2 -1 -4 -1s-4 0 -5 1c-3 2 -4 5 -4 8v40c-119 0 -216 -98 -216 -217
c0 -120 96 -216 216 -216c116 0 212 92 217 207z" />
    <glyph glyph-name="uniF120" unicode="&#xf120;" horiz-adv-x="501" 
d="M501 196c0 -18 -13 -33 -29 -37c-7 -124 -110 -223 -236 -223c-130 0 -236 106 -236 236s106 237 236 237v26v2c-1 2 0 4 1 6c2 4 8 7 12 4l106 -45c3 -2 4 -5 4 -8s-1 -6 -4 -8l-106 -45c-1 -1 -2 -1 -4 -1s-4 0 -5 1c-3 2 -4 5 -4 8v40c-119 0 -216 -98 -216 -217
c0 -120 96 -216 216 -216c115 0 210 90 217 203c-16 4 -28 19 -28 37c0 21 17 38 38 38s38 -17 38 -38z" />
    <glyph glyph-name="uniF121" unicode="&#xf121;" horiz-adv-x="510" 
d="M510 196c0 -23 -16 -42 -38 -46c-12 -120 -113 -214 -236 -214c-130 0 -236 106 -236 236s106 237 236 237v26v2c-1 2 0 4 1 6c2 4 8 6 12 4l106 -45c3 -2 4 -5 4 -8s-1 -6 -4 -8l-106 -45c-1 -1 -2 -1 -4 -1s-4 0 -5 1c-3 2 -4 5 -4 8v40c-119 0 -216 -98 -216 -217
c0 -120 96 -216 216 -216c112 0 205 85 216 194c-21 5 -36 24 -36 46c0 26 21 47 47 47s47 -21 47 -47zM254 424v-59l78 29zM463 167c16 0 29 13 29 29s-13 29 -29 29s-29 -13 -29 -29s13 -29 29 -29z" />
    <glyph glyph-name="uniF122" unicode="&#xf122;" horiz-adv-x="508" 
d="M475 73l32 -126c1 -5 -1 -10 -6 -11h-2c-4 0 -8 3 -9 7l-28 107c-46 -66 -122 -110 -208 -110c-140 0 -254 114 -254 254s114 254 254 254s254 -114 254 -254h-18c0 130 -106 236 -236 236s-236 -106 -236 -236s106 -236 236 -236c83 0 155 43 197 107l-113 30
c-5 1 -8 6 -7 11s6 7 11 6l126 -33h2c1 0 1 -1 1 -1l1 -1l2 -1v-2z" />
    <glyph glyph-name="uniF123" unicode="&#xf123;" horiz-adv-x="508" 
d="M254 444c140 0 254 -114 254 -254s-114 -254 -254 -254c-137 0 -250 110 -254 246h18c4 -126 109 -228 236 -228c130 0 236 106 236 236s-106 236 -236 236c-83 0 -156 -43 -198 -107l114 -30c5 -1 7 -6 6 -11s-6 -7 -11 -6l-126 33h-1c-1 0 -2 1 -2 1l-1 1l-1 1
c0 1 -1 1 -1 2v1l-33 126c-1 5 2 10 7 11h2c4 0 8 -3 9 -7l27 -107c46 66 123 110 209 110z" />
    <glyph glyph-name="uniF124" unicode="&#xf124;" 
d="M33 312l-33 125c-1 5 2 10 7 11h2c4 0 8 -3 9 -7l27 -107c46 66 122 110 208 110c139 0 251 -113 252 -252h-17c-1 129 -106 234 -235 234c-82 0 -155 -43 -197 -107l113 -29c5 -1 7 -6 6 -11s-5 -7 -10 -6l-126 32l-1 1c-1 0 -2 1 -2 1l-1 1l-1 1c0 1 -1 1 -1 2v1z
M512 -51c1 -5 -2 -10 -7 -11h-2c-4 0 -8 3 -9 7l-28 111c-45 -71 -123 -118 -213 -118c-137 0 -249 109 -253 245h18c4 -126 108 -227 235 -227c84 0 158 45 199 112l-109 28c-5 1 -7 6 -6 11s5 7 10 6l126 -32l1 -1h2l1 -2l1 -1c0 -1 1 0 1 -1v-1z" />
    <glyph glyph-name="uniF125" unicode="&#xf125;" 
d="M511 150c2 -4 1 -10 -3 -12l-109 -64l-1 -1h-2h-1h-2h-2l-1 1l-109 64c-4 2 -5 8 -3 12s8 5 12 3l94 -56v317c0 9 -7 17 -16 17h-226c-9 0 -16 -8 -16 -17v-36h-17v36c0 19 14 34 33 34h226c19 0 34 -15 34 -34v-319l97 58c3 2 7 1 10 -2c1 0 2 0 2 -1zM384 -17v39h18
v-39c0 -19 -15 -34 -34 -34h-226c-19 0 -33 15 -33 34v320l-96 -56c-4 -2 -10 -1 -12 3s-1 10 3 12l110 64l1 1h1h2h2h1l1 -1l109 -64c4 -2 5 -8 3 -12c0 -1 0 0 -1 -1c-3 -3 -8 -4 -11 -2l-96 57v-321c0 -9 7 -17 16 -17h226c9 0 16 8 16 17z" />
    <glyph glyph-name="uniF126" unicode="&#xf126;" horiz-adv-x="499" 
d="M465 339c19 0 34 -14 34 -33v-226c0 -19 -15 -34 -34 -34h-319l58 -97c2 -3 1 -7 -2 -10c-1 -1 0 -2 -1 -2c-4 -2 -10 -1 -12 3l-65 109v1v2s-1 0 -1 1s1 1 1 2v2v1l65 109c2 4 8 5 12 3s5 -8 3 -12l-56 -94h317c9 0 17 7 17 16v226c0 9 -8 16 -17 16h-36v17h36zM17 80
c0 -9 8 -16 17 -16h39v-18h-39c-19 0 -34 15 -34 34v226c0 19 15 33 34 33h320l-56 96c-2 4 -1 10 3 12s10 1 12 -3l64 -110l1 -1v-1v-2v-2v-1l-1 -1l-64 -109c-2 -4 -8 -5 -12 -3c-1 0 -2 0 -2 1c-3 3 -3 8 -1 11l57 96h-321c-9 0 -17 -7 -17 -16v-226z" />
    <glyph glyph-name="uniF127" unicode="&#xf127;" 
d="M256 448c141 0 255 -114 256 -255h-18c-1 131 -107 237 -238 237c-81 0 -153 -41 -196 -103h58c5 0 9 -4 9 -9s-4 -9 -9 -9h-80c-5 0 -9 4 -9 9v78c0 5 4 9 9 9s9 -4 9 -9v-56c46 65 123 108 209 108zM483 90c5 0 9 -4 9 -9v-78c0 -5 -4 -9 -9 -9s-9 4 -9 9v56
c-45 -73 -126 -123 -218 -123c-138 0 -252 111 -256 248h18c4 -127 109 -230 238 -230c87 0 164 48 205 118h-57c-5 0 -9 4 -9 9s4 9 9 9h79z" />
    <glyph glyph-name="uniF128" unicode="&#xf128;" 
d="M250 34c0 18 -27 41 -55 66c-40 35 -85 76 -85 124c0 60 41 96 81 96c22 0 45 -10 68 -28c24 24 47 29 63 29c47 0 88 -46 88 -97c0 -50 -47 -90 -87 -125c-28 -24 -54 -47 -55 -65c0 -5 -4 -9 -9 -9v0c-5 0 -9 4 -9 9zM256 448c141 0 255 -114 256 -255h-18
c-1 131 -107 237 -238 237c-81 0 -153 -41 -196 -103h58c5 0 9 -4 9 -9s-4 -9 -9 -9h-80c-5 0 -9 4 -9 9v78c0 5 4 9 9 9s9 -4 9 -9v-56c46 65 123 108 209 108zM483 90c5 0 9 -4 9 -9v-78c0 -5 -4 -9 -9 -9s-9 4 -9 9v56c-45 -73 -126 -123 -218 -123
c-138 0 -252 111 -256 248h18c4 -127 109 -230 238 -230c87 0 164 48 205 118h-57c-5 0 -9 4 -9 9s4 9 9 9h79z" />
    <glyph glyph-name="uniF129" unicode="&#xf129;" 
d="M250 34c0 18 -27 41 -55 66c-40 35 -85 76 -85 124c0 46 31 96 82 96c22 0 44 -10 67 -28c24 24 47 29 63 29c47 0 87 -46 87 -97c0 -50 -46 -90 -86 -125c-28 -24 -54 -47 -55 -65c0 -5 -4 -9 -9 -9v0c-5 0 -9 4 -9 9zM128 224c0 -40 42 -77 79 -110
c22 -19 42 -37 53 -54c11 17 30 33 51 52c38 33 80 70 80 112s-32 79 -69 79c-19 0 -39 -11 -56 -30c-2 -2 -4 -3 -6 -3s-5 1 -7 3c-21 19 -42 29 -61 29c-40 0 -64 -41 -64 -78zM256 448c141 0 255 -114 256 -255h-18c-1 131 -107 237 -238 237c-81 0 -153 -41 -196 -103
h58c5 0 9 -4 9 -9s-4 -9 -9 -9h-80c-5 0 -9 4 -9 9v78c0 5 4 9 9 9s9 -4 9 -9v-56c46 65 123 108 209 108zM483 90c5 0 9 -4 9 -9v-78c0 -5 -4 -9 -9 -9s-9 4 -9 9v56c-45 -73 -126 -123 -218 -123c-138 0 -252 111 -256 248h18c4 -127 109 -230 238 -230
c87 0 164 48 205 118h-57c-5 0 -9 4 -9 9s4 9 9 9h79z" />
    <glyph glyph-name="uniF12A" unicode="&#xf12a;" 
d="M367 330c3 2 8 1 11 -2s4 -7 2 -10l-126 -287c-1 -3 -4 -5 -8 -5h-2c-4 1 -7 4 -7 8l-11 138l-141 13c-4 0 -7 4 -8 8s1 7 5 9zM489 98c5 0 10 -4 10 -9v-80c0 -5 -5 -9 -10 -9s-9 4 -9 9v57c-46 -74 -127 -125 -221 -125c-140 0 -255 113 -259 252h18
c4 -129 111 -233 241 -233c89 0 166 48 208 119h-58c-5 0 -9 5 -9 10s4 9 9 9h80zM32 307c-5 0 -9 4 -9 9v79c0 5 4 9 9 9s9 -4 9 -9v-56c47 66 124 109 211 109c143 0 259 -115 260 -258h-18c-1 133 -109 240 -242 240c-82 0 -154 -42 -198 -105h58c5 0 9 -4 9 -9
s-4 -9 -9 -9h-80z" />
    <glyph glyph-name="uniF12B" unicode="&#xf12b;" 
d="M242 28l-11 143l-146 14l281 126zM331 276l-177 -79l79 -8c9 -1 15 -7 16 -16l6 -72zM256 448c141 0 255 -114 256 -255h-18c-1 131 -107 237 -238 237c-81 0 -153 -41 -196 -103h58c5 0 9 -4 9 -9s-4 -9 -9 -9h-80c-5 0 -9 4 -9 9v78c0 5 4 9 9 9s9 -4 9 -9v-56
c46 65 123 108 209 108zM483 90c5 0 9 -4 9 -9v-78c0 -5 -4 -9 -9 -9s-9 4 -9 9v56c-45 -73 -126 -123 -218 -123c-138 0 -252 111 -256 248h18c4 -127 109 -230 238 -230c87 0 164 48 205 118h-57c-5 0 -9 4 -9 9s4 9 9 9h79z" />
    <glyph glyph-name="uniF12C" unicode="&#xf12c;" 
d="M256 448c141 0 255 -114 256 -255h-18c-1 131 -107 237 -238 237c-81 0 -153 -41 -196 -103h58c5 0 9 -4 9 -9s-4 -9 -9 -9h-80c-5 0 -9 4 -9 9v78c0 5 4 9 9 9s9 -4 9 -9v-56c46 65 123 108 209 108zM483 90c5 0 9 -4 9 -9v-78c0 -5 -4 -9 -9 -9s-9 4 -9 9v56
c-45 -73 -126 -123 -218 -123c-138 0 -252 111 -256 248h18c4 -127 109 -230 238 -230c87 0 164 48 205 118h-57c-5 0 -9 4 -9 9s4 9 9 9h79zM279 279v0v-189v0c3 -21 -22 -43 -57 -51c-8 -2 -16 -3 -24 -3c-26 0 -46 10 -50 27c-5 21 20 46 56 54c8 2 16 2 24 2
c14 0 27 -2 36 -8l1 3v244l8 -1c1 0 114 -22 123 -121l2 -21l-14 16c-45 49 -90 50 -105 48z" />
    <glyph glyph-name="uniF12D" unicode="&#xf12d;" 
d="M408 237c1 -4 0 -8 -3 -10l-82 -66l28 -97c1 -4 0 -7 -3 -9c-2 -1 -3 -2 -5 -2s-4 0 -5 1l-86 54l-86 -54c-3 -2 -7 -1 -10 1s-5 6 -4 10l29 96l-82 66c-3 2 -4 6 -3 10s4 6 8 6l102 5l38 97c1 3 4 6 8 6s7 -3 8 -6l38 -97l102 -5c4 0 7 -2 8 -6zM256 448
c141 0 255 -114 256 -255h-18c-1 131 -107 237 -238 237c-81 0 -153 -41 -196 -103h58c5 0 9 -4 9 -9s-4 -9 -9 -9h-80c-5 0 -9 4 -9 9v78c0 5 4 9 9 9s9 -4 9 -9v-56c46 65 123 108 209 108zM483 90c5 0 9 -4 9 -9v-78c0 -5 -4 -9 -9 -9s-9 4 -9 9v56
c-45 -73 -126 -123 -218 -123c-138 0 -252 111 -256 248h18c4 -127 109 -230 238 -230c87 0 164 48 205 118h-57c-5 0 -9 4 -9 9s4 9 9 9h79z" />
    <glyph glyph-name="uniF12E" unicode="&#xf12e;" 
d="M408 237c1 -4 0 -8 -3 -10l-82 -66l29 -97c1 -4 -1 -7 -4 -9s-7 -3 -10 -1l-86 54l-86 -54c-1 -1 -3 -1 -5 -1s-3 1 -5 2c-3 2 -5 5 -4 9l29 97l-82 66c-3 2 -4 6 -3 10s4 6 8 6l102 5l38 97c1 3 4 6 8 6s7 -3 8 -6l38 -97l102 -5c4 0 7 -2 8 -6zM307 171l68 55l-84 4
c-4 0 -7 3 -8 6l-31 81l-31 -81c-1 -3 -4 -6 -8 -6l-84 -4l68 -55c3 -2 4 -6 3 -10l-24 -79l71 44c3 2 7 2 10 0l70 -44l-23 79c-1 3 0 8 3 10zM256 448c141 0 255 -114 256 -255h-18c-1 131 -107 237 -238 237c-81 0 -153 -41 -196 -103h58c5 0 9 -4 9 -9s-4 -9 -9 -9h-80
c-5 0 -9 4 -9 9v78c0 5 4 9 9 9s9 -4 9 -9v-56c46 65 123 108 209 108zM483 90c5 0 9 -4 9 -9v-78c0 -5 -4 -9 -9 -9s-9 4 -9 9v56c-45 -73 -126 -123 -218 -123c-138 0 -252 111 -256 248h18c4 -127 109 -230 238 -230c87 0 164 48 205 118h-57c-5 0 -9 4 -9 9s4 9 9 9h79z
" />
    <glyph glyph-name="uniF12F" unicode="&#xf12f;" 
d="M256 448c141 0 255 -114 256 -255h-18c-1 131 -107 237 -238 237c-81 0 -153 -41 -196 -103h58c5 0 9 -4 9 -9s-4 -9 -9 -9h-80c-5 0 -9 4 -9 9v78c0 5 4 9 9 9s9 -4 9 -9v-56c46 65 123 108 209 108zM483 90c5 0 9 -4 9 -9v-78c0 -5 -4 -9 -9 -9s-9 4 -9 9v56
c-45 -73 -126 -123 -218 -123c-138 0 -252 111 -256 248h18c4 -127 110 -230 238 -230c87 0 164 48 205 118h-57c-5 0 -9 4 -9 9s4 9 9 9h79zM237 54l-12 13c21 21 48 21 69 0l-13 -13c-14 14 -30 14 -44 0zM333 119l-13 -13c-39 39 -83 39 -122 0l-13 13
c46 46 102 46 148 0zM384 169l-13 -13c-36 36 -73 54 -112 54s-76 -18 -112 -54l-13 13c39 39 82 59 125 59s86 -20 125 -59zM433 222l-13 -13c-51 51 -105 77 -161 77s-110 -26 -161 -77l-13 13c54 54 114 82 174 82s120 -28 174 -82z" />
    <glyph glyph-name="uniF130" unicode="&#xf130;" 
d="M268 379c160 -2 244 -110 244 -205c-72 119 -244 84 -244 84v-83s-114 102 -175 144v2c61 44 175 127 175 127v-69zM54 321v-2c27 -18 45 -40 72 -61v-43c-36 30 -80 72 -126 104v2c46 34 72 57 126 96v-39c-27 -19 -45 -36 -72 -57z" />
    <glyph glyph-name="uniF131" unicode="&#xf131;" 
d="M273 380c158 -2 239 -108 239 -201c-44 74 -128 87 -184 87c-33 0 -55 -4 -55 -4v-82s-114 99 -176 141v2c62 44 176 125 176 125v-68zM327 284c62 0 116 -16 155 -46c-9 23 -25 45 -44 63c-29 28 -81 61 -166 62c-10 0 -17 7 -17 17v29v5c-35 -23 -85 -63 -125 -92
c40 -30 90 -75 125 -103v43c0 8 6 15 14 17c1 0 24 5 58 5zM53 323v-1c26 -18 44 -40 70 -61v-42c-35 30 -70 72 -123 103v1c53 33 70 56 123 95v-39c-26 -19 -44 -36 -70 -56zM35 320v2v1v3c-1 -1 -3 -2 -4 -3c1 -1 3 -2 4 -3z" />
    <glyph glyph-name="uniF132" unicode="&#xf132;" 
d="M214 364c195 -2 298 -135 298 -251c-88 146 -298 103 -298 103v-101s-140 123 -214 175v3c74 54 214 155 214 155v-84z" />
    <glyph glyph-name="uniF133" unicode="&#xf133;" 
d="M214 364c195 -2 298 -135 298 -251c-55 92 -160 109 -229 109c-41 0 -69 -6 -69 -6v-101s-140 123 -214 175v3c74 54 214 155 214 155v-84zM283 240c96 0 158 -29 199 -64c-12 33 -31 66 -59 92c-36 35 -103 76 -210 77c-10 0 -18 9 -18 19v48
c-40 -29 -112 -83 -165 -121c53 -39 125 -100 165 -135v60c0 9 6 16 15 18c1 0 31 6 73 6z" />
    <glyph glyph-name="uniF134" unicode="&#xf134;" 
d="M512 331c0 -1 -1 -1 -1 -2v-1l-63 -107c-2 -3 -5 -4 -8 -4c-2 0 -3 0 -4 1c-4 2 -5 8 -3 12l55 94h-464l55 -94c2 -4 1 -10 -3 -12c-1 -1 -2 -1 -4 -1c-3 0 -6 1 -8 4l-63 107c-2 3 -2 6 0 9v0l63 107c3 4 8 5 12 3c4 -3 5 -8 3 -12l-55 -93h464l-55 93c-3 4 -1 9 3 12
c4 2 10 1 12 -3l63 -107v-1c0 -1 1 -1 1 -2v-1v-2z" />
    <glyph glyph-name="uniF135" unicode="&#xf135;" horiz-adv-x="507" 
d="M396 250v-288l97 58c4 2 8 1 11 -2c1 -1 2 -1 2 -2c3 -4 1 -9 -3 -12l-114 -67h-1c-1 0 0 -1 -1 -1h-2h-2s-1 1 -2 1h-1l-114 67c-4 3 -6 8 -3 12s9 7 13 4l102 -61v291c0 99 -81 180 -180 180s-180 -81 -180 -180v-307h-18v307c0 109 89 198 198 198s198 -89 198 -198z
" />
    <glyph glyph-name="uniF136" unicode="&#xf136;" 
d="M314 337c109 0 198 -89 198 -198s-89 -198 -198 -198h-307v18h307c99 0 180 81 180 180s-81 180 -180 180h-291l61 -103c3 -4 0 -9 -4 -12s-9 -1 -12 3l-67 114v1c0 1 -1 1 -1 2v2v1s1 1 1 2v1l67 114c3 4 8 6 12 3c1 0 1 -1 2 -2c3 -3 4 -7 2 -11l-58 -97h288z" />
    <glyph glyph-name="uniF137" unicode="&#xf137;" 
d="M198 337h288l-58 97c-2 4 -1 8 2 11c1 1 1 2 2 2c4 3 9 1 12 -3l67 -114v-1c0 -1 1 -1 1 -2v-1v-2s-1 -1 -1 -2v-1l-67 -114c-3 -4 -8 -6 -12 -3s-7 8 -4 12l61 103h-291c-99 0 -180 -81 -180 -180s81 -180 180 -180h307v-18h-307c-109 0 -198 89 -198 198
s89 198 198 198z" />
    <glyph glyph-name="uniF138" unicode="&#xf138;" horiz-adv-x="507" 
d="M111 250c0 109 89 198 198 198s198 -89 198 -198v-307h-18v307c0 99 -81 180 -180 180s-180 -81 -180 -180v-291l103 61c4 3 9 0 12 -4s1 -9 -3 -12l-114 -67h-1c-1 0 -1 -1 -2 -1h-2h-1s-1 1 -2 1h-1l-114 67c-4 3 -6 8 -3 12c0 1 1 1 2 2c3 3 7 4 11 2l97 -58v288z" />
    <glyph glyph-name="uniF139" unicode="&#xf139;" horiz-adv-x="231" 
d="M114 -64c-1 0 -1 1 -2 1h-1l-107 63c-3 2 -4 5 -4 8c0 2 0 3 1 4c2 4 8 5 12 3l94 -55v464l-94 -55c-4 -2 -10 -1 -12 3c-1 1 -1 2 -1 4c0 3 1 6 4 8l107 63c3 2 6 2 9 0v0l107 -63c4 -3 5 -8 3 -12c-3 -4 -8 -5 -12 -3l-93 55v-464l93 55c4 2 9 1 12 -3
c2 -4 1 -10 -3 -12l-107 -63h-1c-1 0 0 -1 -1 -1h-2h-2z" />
    <glyph glyph-name="uniF13A" unicode="&#xf13a;" horiz-adv-x="318" 
d="M318 32l-11 -14l-62 46c-18 -77 -53 -128 -94 -128c-61 0 -108 112 -108 256v0h18v0c0 -142 46 -238 90 -238c29 0 59 41 76 110l-72 -30l-7 17l88 36c3 1 6 1 9 -1zM64 288c-2 0 -3 1 -5 2l-59 48l11 14l45 -37c18 80 53 133 95 133c60 0 109 -112 109 -255h-18
c0 142 -48 237 -91 237c-30 0 -60 -44 -77 -118l51 24l8 -16l-65 -31c-1 -1 -3 -1 -4 -1z" />
    <glyph glyph-name="uniF13B" unicode="&#xf13b;" horiz-adv-x="440" 
d="M220 16c4 3 9 1 12 -3s1 -9 -3 -12l-108 -64v0c-1 -1 -2 -1 -4 -1s-4 0 -5 1l-108 64c-4 3 -6 8 -3 12s9 6 13 3l94 -55v478c0 5 4 9 9 9s9 -4 9 -9v-478zM436 383c4 -3 6 -8 3 -12s-8 -6 -12 -3l-94 55v-478c0 -5 -4 -9 -9 -9s-9 4 -9 9v478l-95 -55c-1 -1 -2 -1 -4 -1
c-3 0 -6 1 -8 4c-3 4 -1 9 3 12l108 64c3 2 6 2 9 0v0z" />
  </font>
</defs>
</svg>
